Free Websites at Nation2.com


Total Visits: 3329

San Andreas 720p Dual Audio Kickass

San Andreas 720p Dual Audio Kickass

 

San Andreas 720p Dual Audio Kickass http://tinyurl.com/l5chdet

 

 

 

 

 

 

 

 

 

 

 

 

 

 

 

 

 

 

 

 

 

 

 

 

 

 

 

 

 

 

 

 

 

 

 

 

 

 

 

 

 

 

 

 

 

 

 

 

 

 

 

 

 

 

 

 

 

San Andreas 720p Dual Audio Kickass, gobandit race 1080p hd tactical camera

 

f44c5aec2f

San Andreas (2015) 720p HDTS [Dual Audio] - [Hindi - English] x2 Torrent sites: 1, Tags: Movies, Video 1.0 GiB 29.09.16 GTA San Andreas Setup 3.9 GiB 14.11.16 4 months Download torrent 1.96 GB bajirao mastani movie download kickass 720p leechers:0 San Andreas 2015 720p BDRip x264 Dual Audio (Eng+Hindi) DD5.1 MSubs-Masti08.09.16 GTA San Andreas 3.4 GiB 28.04.08 8 years San Andreas 3.9 GiB 15.07.07 9 years FILENAMESIZE Sample.mkv12.1 MB San Andreas (2015) 720p running man 156 720p mkv iron man 1080p wallpaper 1920x1080 [Dual-Audio] [English BD 5.1 + Hindi BD 5.1].mkv1.1 GB

 

First,Asylum had somewhat of a larger budget than usual which really helps! The daughter was NOT a bratty slut who the audience hopes doesn't survive.She was maybe a little understated and had few lines but she was likable.The Mom/Seismologist.She was great! She WAS the movie.The acting by everyone involved was excellent.The elderly couple in the hotel were adorable and their story touching.The boyfriend was smart and real.not perfect but REAL and decent.The dialogue throughout the movie may have been standard at times but it was presented well and flowed.The action was super fun.Predictable at times but I found myself routing for the main characters.The special effects were above average for Asylum.no cheese in this movie.There was no prolonged drama queen scenes or soap opera like moments o meri jaan 1080p projector in so many movies that end up with bad reviews.No wooden acting.No fake explosions.No dragged out "we don't believe you" scenes when the seismologist demands they take her seriously.Not a lot of stupidity in this one.I usually shut these kinds of movies off because of the stupidity.Sure the whole movie has been done before.but I watched it from beginning to end without getting frustrated once.In fact this movie beats out most SYFY channel movies I've seen in along time.I won't expect Asylum to always put out a watchable movie in the future.but I do think they are upping their own ante.Job well done!I give it 8 stars because I want to balance out all the bad reviews this one will get because its Asylum asin hot songs hd 1080p blu-ray tamil movies called Andreas Quake.The Plot Summary for San Andreas Quake (2015) 1080PWhen a discredited L.AGTA - San Andreas 3.4 GiB 21.10.07 9 years San Andreas - (2015) - Cam - x264 - [Dual Audio] - [ Tamil + English ] - DRG-AkHiLYO Torrent sites: 1, Tags: AkHiLYO GTA San Andreas 3.9 GiB 19.03.06 11 years .Gta San Andreas 3.9 GiB 03.04.12 5 years Seismologist warns of an impending 12.7 earthquake, no one takes her seriouslySan Andreas (2015) 720p HDTS [Dual Audio] - [Hindi - English] x2 1.0 GiB 07.07.15 1 year, 8 months

 

GTA-San Andreas 37.2 MiB 02.12.11 5 years GTA san andreas multiplayer 3.6 MiB 17.11.07 9 years GTA San Andreas Torrent sites: 2, Tags: Audio, Games, Music GTA San Andreas FULL PC GAME English Torrent sites: 1, Tags: Audio, Music 3.9 GiB 02.02.17 San Andreas Soundtrack 687.5 MiB 24.03.13 4 years Similar Torrents

 

San Andreas (2015) General Complete name : San Andreas (2015) 720p BluRay x264 [Dual-Audio] [English BD 5.1 + Hindi BD 5.1].mkv Format : Matroska Format version : Version 4 / Version 2 File size : 1.12 GiB Duration : 1h 54mn Overall bit rate : 1 400 Kbps Writing library : libebml v1.3.0 + libmatroska v1.4.0 NUMBEROFFRAMES : 214645 Video ID : 1 Format : AVC Format/Info : Advanced Video Codec Format profile : gossip girl s05e22 720p movies Format settings, CABAC : Yes Format settings, ReFrames : 4 frames Codec ID : VMPEG4/ISO/AVC Duration : 1h 54mn Bit rate : 950 Kbps Width : 1 280 pixels Height : 536 pixels Display aspect ratio : 2.40:1 Frame rate mode : Constant Frame rate : 23.976 fps Color space : YUV Chroma subsampling : 4:2:0 Bit depth : 8 bits Scan type : Progressive Bits/(Pixel*Frame) : 0.058 Stream size : 757 MiB (66%) Writing library : x264 core 146 r2538 121396c Language : English Default : Yes Forced : No Audio #1 ID : 2 Format : AC-3 Format/Info : Audio Coding 3 Mode extension : CM (complete main) Format settings, Endianness : Big Codec ID : AAC3 Duration : 1h 54mn Bit rate mode : Constant Bit rate : 224 Kbps Channel(s) : 6 channels Channel positions : Front: L C R, Side: L R, LFE Sampling rate : 48.0 KHz Bit depth : 16 bits Compression mode : Lossy Stream size : 183 MiB (16%) Language : Hindi Default : Yes Forced : No Audio raspberry pi 1080p dts passthrough ID : 3 Format : AC-3 transformers 3 tr dublaj 720p : Audio Coding 3 Mode extension : CM (complete main) Format settings, Endianness : Big Codec ID : AAC3 Duration : 1h 54mn Bit rate mode : Constant Bit rate : 224 Kbps Channel(s) : 6 channels Channel positions : Front: L C R, Side: L R, LFE Sampling rate : 48.0 KHz Bit depth : 16 bits Compression mode : Lossy Stream size : 183 MiB (16%) Language : English Default : No Forced : No Screenshots: Note: Sample include in torrentTorrent TrackersTerremoto A Falha de San Andreas (2015) 720p HDRip Dual Audio Dublado Torrent sites: 1, Tags: BRSHARES San andreas 156.7 KiB 04.04.07 10 years Torrent Descriptiontorrent name size age

 

San Andreas (2015) 1080p BDRip [Dual Audio] ORG BD 5.1 [Hindi-Eng]Invincible 3.5 GiB 08.11.16 4 months San Andreas - (2015) - 480p - HDRip - x264 - [Dual Audio] - [English + Hindi] - DevilRG (Size: 350.16 MB) San Andreas - (2015) - 480p - HDRip - x264 - [Dual Audio] - [English + Hindi] - DevilRG.mkv350.16 MBTorrent Downloaded From ExtraTorrent.cc.txt338 bytesTorrent Downloaded From kickass.to.txt0 bytes RECENT SEARCHES search cloud 2010 10 30 San Diego new girl s03e04 720p vs 1080i FLAC Ptnn Cambree models Sets 39 44 SDMS 864 by Rory forbidden craving showalter agents of 1080p rarbg s04e07 TV Shows Movies Music Games Software Anime Books Other Most Downloaded Most Active Most Seeded Most Leeched downton abbey s04e02 720p fov Movie4u Torrents.to Torrent Download Download San Andreas Quake (2015) 1080P On Internet .San Andreas (2015) HDRip Dual Audio [Hindi 2 0 ] x264 AAC skystar HD 762.2 MiB 14.11.16 4 months Home todays torrents yesterdays torrents add to bookmarks